[4K短片] THX專業DTS 5.1環繞聲測試 [2160P/MKV/115MB/175MB]

6744
回復
806552
查看
  [復制鏈接]
1#
來源:4K視頻下載 2016-9-26 07:36:19 回帖獎勵 |閱讀模式
[4K短片] THX專業DTS 5.1環繞聲測試 [2160P/MKV/115MB/175MB] [4K短片] THX專業DTS 5.1環繞聲測試 [2160P/MKV/115MB/175MB]

General # 1
Unique ID : 207284103021784227948821954512910917569 (0x9BF177525CF05F5EB082460669C59FC1)
Complete name : THX_Eclipse_Long_4K_UHD_(DTS-HD 5.1).mkv
Format : Matroska
Format version : Version 4 / Version 2
File size : 175 MiB
Duration : 47 s 553 ms
Overall bit rate : 30.8 Mbps
Encoded date : UTC 2015-10-03 12:15:28
Writing application : mkvmerge v8.3.0 ('Over the Horizon') 64bit
Writing library : libebml v1.3.1 + libmatroska v1.4.2

Video # 1
ID : 1
Format : AVC
Format/Info : Advanced Video Codec
Format profile : High@L5.1
Format settings, CABAC : No
Format settings, ReFrames : 4 frames
Codec ID : V_MPEG4/ISO/AVC
Duration : 47 s 417 ms
Bit rate : 27.3 Mbps
Width : 3840 pixels
Height : 2160 pixels
Display aspect ratio : 16:9
Frame rate mode : Constant
Frame rate : 24.000 FPS
Color space : YUV
Chroma subsampling : 4:2:0
Bit depth : 8 bits
Scan type : Progressive
Bits/(Pixel*Frame) : 0.137
Stream size : 154 MiB (88%)
Writing library : x264 core 142 r2479 dd79a61
Encoding settings : cabac=1 / ref=4 / deblock=1:-1:-1 / analyse=0x3:0x133 / me=umh / subme=10 / psy=1 / psy_rd=1.00:0.15 / mixed_ref=1 / me_range=24 / chroma_me=1 / trellis=2 / 8x8dct=1 / cqm=0 / deadzone=21,11 / fast_pskip=1 / chroma_qp_offset=-3 / threads=1
Language : English
Default : Yes
Forced : No
Color range : Limited
Color primaries : BT.709
Transfer characteristics : BT.709
Matrix coefficients : BT.709

Audio # 1
ID : 2
Format : DTS
Format/Info : Digital Theater Systems
Format profile : MA / Core
Mode : 16
Format settings, Endianness : Big
Codec ID : A_DTS
Duration : 47 s 553 ms
Bit rate mode : Variable / Constant
Bit rate : 3609 Kbps / 1509 Kbps
Channel(s) : 6 channels
Channel positions : Front: L C R, Side: L R, LFE
Sampling rate : 48.0 KHz
frame rate : 93.750 fps (512 spf)
Bit depth : 24 bits
Compression mode : Lossless / Lossy
Celay relative to video : -62 ms
Stream size : 20.5 MiB (12%)
Language : English
Default : Yes
Forced : No
[4K短片] THX專業DTS 5.1環繞聲測試 [2160P/MKV/115MB/175MB] [4K短片] THX專業DTS 5.1環繞聲測試 [2160P/MKV/115MB/175MB] [4K短片] THX專業DTS 5.1環繞聲測試 [2160P/MKV/115MB/175MB] [4K短片] THX專業DTS 5.1環繞聲測試 [2160P/MKV/115MB/175MB] [4K短片] THX專業DTS 5.1環繞聲測試 [2160P/MKV/115MB/175MB]
MKV百度云盤
游客,如果您要查看本帖隱藏內容請回復




分享到:  QQ好友和群QQ好友和群
2#
2016-9-26 08:11:47
果斷馬克mark
TV應用下載
3#
2016-9-26 08:12:48
支持樓主,4K123有你更精彩!
4#
2016-9-26 08:13:10
音質一定很棒。
5#
2016-9-26 08:37:34
支持樓主,4K123有你更精彩!
6#
2016-9-26 08:48:25
我家4K電視又可以炫機了
7#
2016-9-26 08:53:11
真是難得給力的資源啊。
8#
2016-9-26 08:54:47
新手前來學習4K
9#
2016-9-26 08:57:41
THX專業DTS 5.1環繞聲測試
10#
2016-9-26 09:00:36
[4K短片] THX專業DTS 5.1環繞聲測試 [2160P/MKV/115MB/175MB]

點評

ll5
謝謝!!!  詳情 回復 發表于 2020-2-23 08:53
您需要登錄后才可以回帖 登錄 | 注冊
浙江体彩网-推荐 浙江福彩网-官网 浙江彩票网-欢迎您 广东体彩网-安全购彩 广东福彩网-Welcome 吉林体彩网-Home 吉林福彩网-河北彩票网 湖北体彩网-推荐 湖北福彩网-官网 江西体彩网-欢迎您