松下85Mbps試機片精選!高端神物你懂得![1080P/85Mbps/MPEG2/7.17GB]

6728
回復
816935
查看
  [復制鏈接]
1#
來源:4K視頻下載 2014-1-23 15:36:39 回帖獎勵 |閱讀模式
總共是:《暗流涌動》、《高畫質演示錦集》、《日本式的食物- 2008 ver.》和《色彩表現力測試》四個變態的測試片子(不是掩飾片!),對機子有一定的要求。并且畫質流弊!這個只是小小的開胃菜!以后所有的松下演示片85Mbps版本會全部發上來!這次的文件一共7.17GB!









J:\Panasonic DEMO\High.quality.collection.m2ts
  General #1
    ID : 1 (0x1)
    Format : BDAV
    Format/Info : Blu-ray Video
    File size : 1.92 GiB
    Duration : 3mn 13s
    Overall bit rate : 85.3 Mbps
  Video #4113
    ID : 4113 (0x1011)
    Menu ID : 1 (0x1)
    Format : MPEG Video
    Format version : Version 2
    Format profile : Main@High
    Format settings, BVOP : Yes
    Format settings, Matrix : Custom
    Codec ID : 2
    Duration : 3mn 13s
    Bit rate : 80.0 Mbps
    Width : 1 920 pixels
    Height : 1 080 pixels
    Display aspect ratio : 16:9
    Frame rate : 29.970 fps
    Standard : Component
    Color space : YUV
    Chroma subsampling : 4:2:0
    Bit depth : 8 bits
    Scan type : Interlaced
    Scan order : Top Field First
    Compression mode : Lossy
    Bits/(Pixel*Frame) : 1.287
    Stream size : 1.81 GiB (94%)
    Color primaries : BT.709
    Transfer characteristics : BT.709
    Matrix coefficients : BT.709
  Audio #4352
    ID : 4352 (0x1100)
    Menu ID : 1 (0x1)
    Format : DTS
    Format/Info : Digital Theater Systems
    Codec ID : 130
    Duration : 3mn 13s
    Bit rate mode : Constant
    Bit rate : 1 510 Kbps
    Channel(s) : 6 channels
    Channel positions : Front: L C R, Side: L R, LFE
    Sampling rate : 48.0 KHz
    Bit depth : 16 bits
    Compression mode : Lossy
    Stream size : 34.8 MiB (2%)

百度下載:

游客,如果您要查看本帖隱藏內容請回復


分享到:  QQ好友和群QQ好友和群
2#
匿名  發表于 1970-1-1 08:00:00
post_deleted
TV應用下載
3#
2014-1-23 18:52:15
好資源,謝謝分享。
4#
2014-1-23 20:48:09
看看,自己的電腦能勝任嗎
5#
2014-1-23 20:52:43
提示: 該帖被管理員或版主屏蔽
6#
2014-1-23 20:59:27
提示: 該帖被管理員或版主屏蔽
7#
2014-1-23 21:12:04
很清晰,漂亮,;下來看看
8#
2014-1-23 21:22:56
強力的頂上去!!!!!!!!
9#
2014-1-23 23:30:39
好大的碼流,畫質肯定不會差
您需要登錄后才可以回帖 登錄 | 注冊
浙江体彩网-推荐 浙江福彩网-官网 浙江彩票网-欢迎您 广东体彩网-安全购彩 广东福彩网-Welcome 吉林体彩网-Home 吉林福彩网-河北彩票网 湖北体彩网-推荐 湖北福彩网-官网 江西体彩网-欢迎您